DR Examples

From DR14 t.meter
Jump to: navigation, search

Genesis - Genesis

Genesis.jpg

Album: Genesis
Artist: Genesis
DR Peak RMS Duration Title [codec]
DR16 -1.11 dB -21.42 dB 6:49 01 - Mama [flac]
DR17 -2.32 dB -21.41 dB 4:28 02 - That's All [flac]
DR14 -3.76 dB -19.86 dB 4:54 03 - Home by the Sea [flac]
DR14 -2.44 dB -19.68 dB 6:24 04 - Second Home by the Sea [flac]
DR14 -2.21 dB -18.92 dB 5:16 05 - Illegal Alien [flac]
DR15 -1.61 dB -20.24 dB 4:00 06 - Taking It All Too Hard [flac]
DR14 -2.45 dB -18.71 dB 4:49 07 - Just a Job to Do [flac]
DR13 -2.25 dB -17.36 dB 4:30 08 - Silver Rainbow [flac]
DR14 -1.47 dB -17.84 dB 4:58 09 - It's Gonna Get Better [flac]
Number of files: 9
Official DR value: DR15
Sampling rate: 44100 Hz
Average bitrate: 800kbs
Bits per sample: 32 bit
Dr14 T.meter 1.0.14


Nirvana - MTV Unplugged In New York

Nirvana.jpg

Album: MTV Unplugged In New York
Artist: Nirvana
DR Peak RMS Duration Title [codec]
DR10 -0.42 dB -13.00 dB 3:33 01 - About A Girl [flac]
DR9 -0.50 dB -12.60 dB 4:16 02 - Come As You Are [flac]
DR10 -0.12 dB -13.65 dB 4:29 03 - Jesus Doesn't Want Me For A Sunbeam [flac]
DR8 -0.10 dB -11.93 dB 4:25 04 - The Man Who Sold The World [flac]
DR9 -0.69 dB -14.13 dB 3:43 05 - Pennyroyal Tea [flac]
DR9 -0.16 dB -11.36 dB 2:52 06 - Dumb [flac]
DR10 -0.25 dB -12.85 dB 3:16 07 - Polly [flac]
DR9 -0.08 dB -12.26 dB 3:43 08 - On A Plain [flac]
DR10 -0.51 dB -17.05 dB 3:54 09 - Something In The Way [flac]
DR12 -1.04 dB -15.71 dB 3:43 10 - Plateau [flac]
DR10 -0.14 dB -13.57 dB 3:25 11 - Oh, Me [flac]
DR10 -0.15 dB -13.23 dB 2:53 12 - Lake Of Fire [flac]
DR9 -0.14 dB -14.03 dB 4:25 13 - All Apologies [flac]
DR9 -0.11 dB -13.69 dB 5:08 14 - Where Did You Sleep Last Night [flac]
Number of files: 14
Official DR value: DR10
Sampling rate: 44100 Hz
Average bitrate: 851kbs
Bits per sample: 16 bit
Dr14 T.meter 1.0.14


Bruce Springsteen - Streets of Philadelphia

Street of philadelphia.jpg

Album: Streets Of Philadelphia
Artist: Bruce Springsteen
DR Peak RMS Duration Title [codec]
DR10 -1.09 dB -14.16 dB 3:50 01 - Streets Of Philadelphia [flac]
DR11 -0.73 dB -14.80 dB 4:45 02 - If I Should Fall Behind (Live) [flac]
DR12 -0.31 dB -15.05 dB 3:27 03 - Growing Up (Live) [flac]
DR12 -0.24 dB -16.61 dB 4:34 04 - The Big Muddy (Live) [flac]
Number of files: 4
Official DR value: DR11
Sampling rate: 44100 Hz
Average bitrate: 746kbs
Bits per sample: 16 bit
Dr14 T.meter 1.0.14


Sophie Hunger - The Danger of Light (Deluxe Edition)

Sophie.jpg

Album: The Danger of Light (Deluxe Edition)
Artist: Sophie Hunger
DR Peak RMS Duration Title [codec]
DR10 -0.30 dB -13.90 dB 3:25 01 - Rererevolution [flac]
DR8 -0.30 dB -13.08 dB 4:08 02 - Souldier [flac]
DR10 -0.40 dB -12.35 dB 2:58 03 - LikeLikeLike [flac]
DR13 -0.30 dB -15.50 dB 3:25 04 - Das Neue [flac]
DR9 -0.30 dB -12.68 dB 3:46 05 - Can You See Me? [flac]
DR9 -0.30 dB -13.03 dB 4:54 06 - Heharun [flac]
DR11 -2.80 dB -17.35 dB 3:00 07 - Z'Lied vor Freiheitsstatue [flac]
DR10 -0.30 dB -12.41 dB 2:46 08 - Holy Hells [flac]
DR9 -0.30 dB -12.08 dB 3:28 09 - The Fallen [flac]
DR10 -0.30 dB -13.11 dB 4:15 10 - Perpetrator [flac]
DR12 -2.72 dB -18.34 dB 2:52 11 - Take a Turn [flac]
DR9 -0.30 dB -12.82 dB 3:06 12 - First we Leave Manhattan [flac]
DR12 -0.91 dB -16.72 dB 2:23 13 - What it is [flac]
DR10 -0.30 dB -14.90 dB 5:26 14 - My oh My II [flac]
DR9 -0.30 dB -15.67 dB 4:03 15 - The Musician [flac]
DR14 -3.07 dB -22.19 dB 2:41 16 - One Too Many Mornings [flac]
DR12 -1.15 dB -21.68 dB 4:05 17 - Ne me quitte pas [flac]
Number of files: 17
Official DR value: DR10
Sampling rate: 44100 Hz
Average bitrate: 716kbs
Bits per sample: 16 bit
Dr14 T.meter 1.0.5


Johann Johannsson - Copenhagen Dreams

Cd.jpg

Album: Copenhagen Dreams
Artist: Johann Johannsson
DR Peak RMS Duration Title
DR13 -3.05 dB -23.73 dB 0:54 01 - Eleven Thousand Six Hundred and Sixty-Nine Died of Natural Causes [flac]
DR9 -5.71 dB -20.99 dB 1:08 02 - They Leave Everything Behind [flac]
DR12 -1.47 dB -19.00 dB 2:30 03 - They Fed the Sparrows Leftovers and Offered Grass to Scherfig's Turtle [flac]
DR13 -2.75 dB -20.79 dB 1:08 04 - An Eiffel Tower by the Lakes [flac]
DR11 -3.28 dB -20.12 dB 1:47 05 - Three Thousand Five Hundred and Ninety One Benches [flac]
DR11 -4.34 dB -20.88 dB 2:33 06 - The Jewish Cemetery on Moellegade [flac]
DR11 -4.12 dB -19.69 dB 1:25 07 - They Dream They'll Get There [flac]
DR10 -1.19 dB -17.73 dB 4:10 08 - A Memorial Garden on Enghavevej [flac]
DR12 -4.24 dB -19.91 dB 1:36 09 - A Six-Lane Highway [flac]
DR12 -2.72 dB -22.32 dB 1:36 10 - It Will Take Some Time [flac]
DR14 -2.48 dB -20.43 dB 1:58 11 - He Hit Her on the Head with "The Wind in the Willows" [flac]
DR11 -0.10 dB -17.51 dB 2:09 12 - He Says it's the Future [flac]
DR11 -2.20 dB -18.14 dB 1:07 13 - The Song about the Hyacinths [flac]
DR12 -1.10 dB -18.01 dB 2:13 14 - There's No Harm Done [flac]
DR12 -1.04 dB -18.13 dB 1:46 15 - They Had to Work it Out Between Them [flac]
DR14 -2.27 dB -22.50 dB 2:58 16 - She Loves to Ride the Port Ferry When it Rains [flac]
DR8 -6.91 dB -19.82 dB 1:26 17 - A French School on Vaernedamsvej [flac]
DR10 -0.10 dB -17.09 dB 3:36 18 - Here, They Used to Build Ships [flac]
DR11 -0.10 dB -17.62 dB 4:32 19 - They Imagine the City Growing out Into the Ocean [flac]
Number of files: 19
Official DR value: DR11
Sampling rate: 44100 Hz
Average bitrate: 548kbs
Bits per sample: 16 bit

Arne Domnérus - Jazz at the Pawnshop

Jazz Pawnshop.jpg

Album: Jazz at the Pawnshop [24 Carat Gold Edition PROPHONE]
Artist: Arne Domnérus
DR Peak RMS Duration Title
DR14 -2.21 dB -22.05 dB 10:11 01 - Limehouse Blues [flac]
DR14 -2.85 dB -24.33 dB 8:03 02 - I'm Confessin' [flac]
DR14 -1.07 dB -20.06 dB 7:12 03 - High Life [flac]
DR16 -3.55 dB -27.43 dB 6:58 04 - Jeep's Blues [flac]
DR15 -3.63 dB -24.43 dB 9:21 05 - Lady Be Good [flac]
DR17 -0.24 dB -21.92 dB 6:59 06 - Take Five [flac]
DR16 -3.51 dB -25.59 dB 5:17 07 - Everthing Happens to Me [flac]
DR16 -1.37 dB -22.39 dB 8:20 08 - Barbados [flac]
DR14 -4.95 dB -23.61 dB 7:05 09 - Stuffy [flac]
Number of files: 9
Official DR value: DR15
Sampling rate: 44100 Hz
Average bitrate: 749kbs
Bits per sample: 16 bit

R.E.M. - Green

Green.jpg

Album: Green
Artist: R.E.M.
DR Peak RMS Duration Title
DR12 -0.47 dB -13.97 dB 3:04 01 - Pop Song 89 [flac]
DR11 -1.57 dB -14.59 dB 2:41 02 - Get Up [flac]
DR12 -3.95 dB -18.35 dB 3:44 03 - You Are The Everything [flac]
DR12 -0.39 dB -15.04 dB 3:12 04 - Stand [flac]
DR13 -0.50 dB -15.86 dB 4:19 05 - World Leader Pretend [flac]
DR12 -3.56 dB -18.32 dB 3:38 06 - The Wrong Child [flac]
DR12 -0.66 dB -14.93 dB 3:51 07 - Orange Crush [flac]
DR13 -0.37 dB -15.14 dB 4:17 08 - Turn You Inside Out [flac]
DR12 -4.54 dB -20.28 dB 3:55 09 - Hairshirt [flac]
DR12 -1.16 dB -16.34 dB 5:03 10 - I Remember California [flac]
DR12 -1.60 dB -16.37 dB 3:10 11 - Untitled 11th Song [flac]
Number of files: 11
Official DR value: DR12
Sampling rate: 44100 Hz
Average bitrate: 870kbs
Bits per sample: 16 bit

Paul Simon - Graceland

Graceland.jpg

Album: Graceland
Artist: Paul Simon
DR Peak RMS Duration Title
DR9 -0.10 dB -11.95 dB 3:59 01 - The Boy In The Bubble [flac]
DR9 -0.10 dB -12.07 dB 4:51 02 - Graceland [flac]
DR10 -0.10 dB -11.70 dB 3:13 03 - I Know What I Know [flac]
DR10 -0.26 dB -13.71 dB 2:45 04 - Gumboots [flac]
DR9 -0.10 dB -12.55 dB 5:51 05 - Diamonds On The Soles Of Her Shoes [flac]
DR9 -0.10 dB -11.62 dB 4:40 06 - You Can Call Me Al [flac]
DR8 -0.10 dB -12.56 dB 3:37 07 - Under African Skies [flac]
DR12 -0.10 dB -16.19 dB 3:48 08 - Homeless [flac]
DR9 -0.10 dB -11.99 dB 4:19 09 - Crazy Love Vol. II [flac]
DR10 -0.10 dB -12.01 dB 2:52 10 - That Was Your Mother [flac]
DR9 -0.10 dB -12.81 dB 3:26 11 - All Around The The World or The Myth Of Fingerprints [flac]
DR10 -1.27 dB -15.09 dB 2:31 12 - Homeless (Demo) [flac]
DR8 -0.10 dB -11.10 dB 4:42 13 - Diamonds On The Soles Of Her Shoes (Unreleased Version).flac [flac]
DR8 -0.10 dB -11.34 dB 3:17 14 - All Around The World or The Myth Of Fingerprints (Early Version) [flac]
Number of files: 14
Official DR value: DR9
Sampling rate: 44100 Hz
Average bitrate: 880kbs
Bits per sample: 16 bit


Bruce Springsteen - Born To Run

Born to run.jpeg

Analyzed: Born To Run
Artist: Bruce Springsteen
DR Peak RMS Duration Title
DR12 -0.58 dB -15.85 dB 4:50 01 - Thunder Road [flac]
DR15 -0.00 dB -16.69 dB 3:11 02 - Tenth Avenue Freeze-Out [flac]
DR12 -1.26 dB -14.69 dB 3:01 03 - Night [flac]
DR11 -1.09 dB -15.05 dB 6:30 04 - Backstreets [flac]
DR12 -0.48 dB -14.29 dB 4:30 04 - Born To Run [flac]
DR12 -1.28 dB -15.69 dB 4:30 06 - She's The One [flac]
DR11 -5.69 dB -23.05 dB 3:19 07 - Meeting Across The River [flac]
DR12 -1.66 dB -17.77 dB 9:33 08 - Jungleland [flac]
Number of files: 8
Official DR value: DR12
Sampling rate: 44100 Hz
Average bitrate: 785kbs
Bits per sample: 16 bit

Mozart: Requiem d-moll, KV.626 ; Karl Böhm, Wiener Philharmoniker

Requiem.jpg

Analyzed: Mozart: Requiem d-moll, KV.626
Artist: Karl Böhm, Wiener Philharmoniker
DR Peak RMS Duration Title
DR11 -2.38 dB -19.34 dB 9:37 01 - Requiem/Kyrie [flac]
DR10 -3.47 dB -16.41 dB 2:01 02 - Dies Irae [flac]
DR14 -7.58 dB -26.93 dB 4:18 03 - Tuba Mirum [flac]
DR11 -2.45 dB -19.34 dB 3:13 04 - Rex Tremendae [flac]
DR12 -5.39 dB -24.38 dB 7:04 05 - Recordare [flac]
DR12 -3.34 dB -24.50 dB 3:50 06 - Confutatis [flac]
DR11 -2.87 dB -21.54 dB 4:10 07 - Lacrimosa [flac]
DR11 -3.28 dB -18.59 dB 4:41 08 - Domine Jesu [flac]
DR10 -2.74 dB -18.83 dB 5:06 09 - Hostias [flac]
DR10 -2.66 dB -15.63 dB 1:58 10 - Sanctus [flac]
DR12 -4.86 dB -23.35 dB 6:54 11 - Benedictus [flac]
DR11 -2.40 dB -19.46 dB 11:28 12 - Agnus Dei/Lux Aeterna [flac]
Number of files: 12
Official DR value: DR11
Sampling rate: 44100 Hz
Average bitrate: 641kbs
Bits per sample: 16 bit

1983 - Sophie Hunger

SophieHunger-1983.jpg

Album: 1983
Artist: Sophie Hunger
DR Peak RMS Duration Title
DR9 -0.10 dB -13.40 dB 2:58 01 - Leave Me with the Monkeys [flac]
DR9 -0.01 dB -14.23 dB 3:12 02 - Lovesong to Everyone [flac]
DR10 -0.00 dB -12.18 dB 3:05 03 - 1983 [flac]
DR11 -0.01 dB -14.06 dB 3:10 04 - Headlights [flac]
DR8 -0.00 dB -12.33 dB 3:28 05 - Citylights Forever [flac]
DR7 -0.00 dB -10.77 dB 4:40 06 - Your Personal Religion [flac]
DR10 -0.01 dB -15.23 dB 3:49 07 - Le vent nous portera [flac]
DR12 -0.00 dB -17.08 dB 2:43 08 - Travelogue [flac]
DR7 -0.01 dB -11.47 dB 2:42 09 - Breaking the Waves [flac]
DR12 -0.01 dB -17.38 dB 3:15 10 - D'Red [flac]
DR7 -0.01 dB -10.01 dB 1:35 11 - Approximately Gone [flac]
DR8 -0.01 dB -10.50 dB 2:34 12 - Invisible [flac]
DR11 -0.41 dB -16.65 dB 2:38 13 - Broken English [flac]
DR12 -0.00 dB -17.64 dB 2:35 14 - Train People [flac]
Number of files: 14
Official DR value: DR10
Sampling rate: 44100 Hz
Average bitrate: 698kbs
Bits per sample: 16 bit

Kiss - Chikara

KISS Chikara.jpg

Album: Chikara
Artist: Kiss
DR Peak RMS Duration Title
DR12 -1.98 dB -16.63 dB 2:48 01 - Rock And Roll All Nite [flac]
DR11 -3.66 dB -18.03 dB 5:14 02 - Detroit Rock City [flac]
DR12 -1.01 dB -16.75 dB 3:17 03 - Love Gun [flac]
DR13 -1.68 dB -16.54 dB 7:56 04 - I Was Made For Lovin' You (Extended Version) [flac]
DR12 -1.40 dB -15.46 dB 4:04 05 - Creatures Of The Night [flac]
DR12 -2.69 dB -17.20 dB 4:15 06 - I Love It Loud [flac]
DR12 -1.80 dB -16.36 dB 4:15 07 - War Machine [flac]
DR12 -1.78 dB -16.72 dB 3:55 08 - Lick It Up [flac]
DR13 -0.00 dB -17.53 dB 4:33 09 - All Hell's Breakin' Loose [flac]
DR11 -3.86 dB -17.06 dB 3:20 10 - Heaven's On Fire [flac]
DR10 -3.08 dB -16.34 dB 4:21 11 - Thrills In The Night [flac]
DR12 -1.70 dB -15.67 dB 4:00 12 - Who Wants To Be Lonely [flac]
DR13 -1.20 dB -17.24 dB 4:01 13 - Uh! All Night [flac]
DR12 -1.22 dB -16.04 dB 3:55 14 - Tears Are Falling [flac]
Number of files: 14
Official DR value: DR12
Sampling rate: 44100 Hz
Average bitrate: 891kbs
Bits per sample: 16 bit

David Garrett; Encore

Encore-2008.jpg


Album: Encore
Artist: David Garrett
DR Peak RMS Duration Title
DR7 -0.09 dB -8.93 dB 3:07 01 - Smooth Criminal [ape]
DR5 -0.09 dB -12.48 dB 4:07 02 - Who Wants To Live Forever [ape]
DR11 -0.32 dB -16.20 dB 3:29 03 - Clair du Lune [ape]
DR6 -0.01 dB -9.92 dB 3:02 04 - He's A Pirate [ape]
DR10 -0.23 dB -14.65 dB 3:55 05 - Summertime [ape]
DR8 -0.17 dB -10.46 dB 2:57 06 - Hungarian Dance No.5 [ape]
DR10 -0.27 dB -15.63 dB 2:43 07 - Chelsea Girl [ape]
DR5 -0.01 dB -7.45 dB 2:38 08 - Summer [ape]
DR8 -0.22 dB -14.64 dB 3:13 09 - O Mio Babbino Caro [ape]
DR9 -0.16 dB -11.49 dB 3:37 10 - Air [ape]
DR6 -0.01 dB -9.76 dB 3:06 11 - Thunderstruck [ape]
DR9 -0.26 dB -13.97 dB 3:51 12 - New Day [ape]
DR9 -0.22 dB -11.34 dB 2:39 13 - Ain't No Sunshine [ape]
DR8 -0.06 dB -12.02 dB 3:21 14 - Rock Prelude [ape]
DR11 -3.27 dB -18.44 dB 2:37 15 - Winter Lullaby [ape]
DR13 -0.18 dB -17.41 dB 2:33 16 - Zorba's Dance [ape]
Number of files: 16
Official DR value: DR8
Sampling rate: 44100 Hz
Average bitrate: 795kbs
Bits per sample: 16 bit